[DVD] ฮักนะสารคาม - Huk Na Sarakram

Go down

[DVD] ฮักนะสารคาม - Huk Na Sarakram Empty [DVD] ฮักนะสารคาม - Huk Na Sarakram

ตั้งหัวข้อ by Admin on Sat Jul 23, 2011 9:39 pm


กำหนดฉาย : 10 มีนาคม 2554

แนว : โรแมนติกคอมิดี้

นำแสดง : สุดารัตน์ บุตรพหรม (ตุ๊กกี้ ชิงร้อยฯ) , ธันวา สุริยจักร (ทัน) , ภาวิณี วิริยะชัยกิจ(มิลค์) , อาชิรญาณ์ ภีระภัทร์กุญช์ชญา (หนูจ๋า) , วิภู งามเนตร(อ้วน) , สุมลนาถ คำหว่าน

(เกรท) , ประภัทรพงศ์ ประสิทธิพงศ์ (เต้)

กำกับ : ธัญญ์วาริน สุขะพิสิษฐ์





เรื่องย่อ ฮักนะ สารคาม



ไม่ใช่เด็ก ติสต์ แต่เป็นเด็ก อิส ที่อยากจะบอก ฮัก แบบภาษาอีสาน กับเรื่องราว มิตรภาพ ความฝัน ชีวิตความเป็นอยู่กับวัฒนธรรมอีสานของวัยรุ่นยุคใหม่ เสียงหัวเราะ และ

รอยยิ้มที่กำลังจะเกิดขึ้น ท่ามกลางท้องทุ่งเขียวขจีสดใส ในจังหวัดที่ขึ้นชื่อด้านการศึกษา ณ มหาสารคาม แห่งนี้



เจ๊อุบล (ตุ๊กกี้ ชิงร้อยฯ) ดาวเด่นแอ๊บแบ๊วแห่งมหา’ ลัย เรียนมา 7 ปีไม่ยอมจบ ทั้งที่เรียนเก่งมีความสามารถรอบด้าน และยังเป็นถึงประธานชมรมท่องเที่ยวเชิงอนุรักษ์ แต่ด้วย

เหตุผลบางอย่างที่ทำให้เธอไม่ยอมก้าวพ้นออกจากรั้วมหา’ ลัยแห่งนี้ จนเมื่อเธอได้พบกับรุ่นน้องและตกหลุมรัก เทพ (ธันวา สุริยจักร) หนุ่มหล่อขั้นเทพหน้าตาลูกครึ่งสไตล์เกาหลี เป็น

ที่หมายปองของสาว ๆ ไปจนถึงตุ๊ด แต๋ว กะเทยรุ่นเล็กยันรุ่นใหญ่ ทำให้เจ๊อุบลต้องมีผู้ช่วยเป็นรุ่นน้องในคณะ รินทร์ (หนูจ๋า อาชิรญาณ์) สาวสวยสุดโก๊ะ และ โส (สมคิด สุขเอิบ) กะ

เทยยักษ์ชอบฟังหมอลำสุดฤทธิ์ ร่วมกันวางแผนพิชิตใจหนุ่มให้สำเร็จ....แต่หารู้ไม่ว่า เกษ (ภาวิณี วิริยะชัยกิจ) สาวสวยนักกีฬาเทควันโดคือคู่แข่งและศัตรูหัวใจตัวฉกาจ



เรื่องฮัก ฮัก (รัก รัก) ของเจ๊อุบลยังเอาตัวไม่รอด แต่กลับต้องมานั่งเป็นที่ปรึกษาปัญหาหัวใจให้กับเด็กมัธยม มุก (สุมลนาถ คำหว่าน) ที่กำลังมีปัญหากับแฟนหนุ่มเด็กเรียน ภูมิ

(ประภัทรพงศ์ ประสิทธิพงศ์) เพราะเกิดจาก แก่น (วิภู งามเนตร) เพื่อนสนิทคิดไม่ซื่อเข้ามาเป็นตัวแปรในความรักครั้งนี้



วัยรุ่นวัยรักไม่ว่าจะเป็นนักเรียนมัธยม หรือกลุ่มเพื่อนพ้องน้องพี่ในรั้วมหาวิทยาลัยที่ล้วนแล้วแต่มีเรื่องราวจี๊ด ๆ ชวนบอกต่อกับอาการ และคำบอกรักแบบ ฮักนะ พร้อมชวน

กันม่วนคัก...ม่วนหลาย ไปยังทุกพื้นที่ ไม่ว่าคุณจะอยู่มุมใดของประเทศ



ฮัก.. จนแก้มป่อง มอง.. จนแก้มแดง บอกฮักกันแรง ๆ ให้แซ่บถึงหัวใจ ฮักนะ สารคาม ภาพยนตร์ฮัก สุดติ่งริงมายเบลล์



Format : Matroska

File size : 3.02 GiB

Duration : 1h 41mn

Overall bit rate : 4 246 Kbps

Movie name : ฮักนะ สารคาม

Encoded date : UTC 2011-07-01 15:56:46

Writing application : mkvmerge v4.6.0 ( Still Crazy After All These Years ) built on Mar 10 2011 02:50:32

Writing library : libebml v1.2.0 + libmatroska v1.1.0



Video

ID : 1

Format : AVC

Format/Info : Advanced Video Codec

Format profile : High@L4.0

Format settings , CABAC : Yes

Format settings , ReFrames : 3 frames

Format settings , GOP : M=4 , N=12

Muxing mode : Container profile=Unknown@4.0

Codec ID : V_MPEG4/ISO/AVC

Duration : 1h 41mn

Bit rate : 3 861 Kbps

Width : 1 280 pixels

Height : 720 pixels

Display aspect ratio : 16:9

Frame rate : 25.000 fps

Color space : YUV

Chroma subsampling : 4:2:0

Bit depth : 8 bits

Scan type : Progressive

Bits/(Pixel*Frame) : 0.168

Stream size : 2.69 GiB (89%)

Writing library : x264 core 114 r1924 08d04a4

Encoding settings : cabac=1 / ref=3 / deblock=1:0:0 / analyse=0x3:0x133 / me=umh / subme=7 / psy=1 / psy_rd

=1.00:0.00 / mixed_ref=1 / me_range=16 / chroma_me=1 / trellis=1 / 8x8dct=1 / cqm=0 / deadzone=21 , 11 / fast_pskip=1 /

chroma_qp_offset=-2 / threads=9 / sliced_threads=0 / nr=0 / decimate=1 / interlaced=0 / constrained_intra=0 /

bframes=3 / b_pyramid=0 / b_adapt=1 / b_bias=0 / direct=1 / weightb=1 / open_gop=0 / weightp=2 / keyint=250 /

keyint_min=25 / scenecut=40 / intra_refresh=0 / rc_lookahead=40 / rc=2pass / mbtree=1 / bitrate=3861 / ratetol=1.0

/ qcomp=0.60 / qpmin=0 / qpmax=69 / qpstep=4 / cplxblur=20.0 / qblur=0.5 / vbv_maxrate=25000 / vbv_bufsize=

25000 / nal_hrd=vbr / ip_ratio=1.40 / aq=1:1.00



Audio

ID : 2

Format : AC-3

Format/Info : Audio Coding 3

Mode extension : CM (complete main)

Codec ID : A_AC3

Duration : 1h 41mn

Bit rate mode : Constant

Bit rate : 384 Kbps

Channel(s) : 6 channels

Channel positions : Front: L C R , Side: L R , LFE

Sampling rate : 48.0 KHz

Stream size : 280 MiB (9%)



- เครดิตทีมงานสังคมแห่งการแบ่งปัน CtHts

Coming together.Happy to share.

[nfsphuket , rimudi , darkvador , JFC , netboy , darnphuket ,

rakkhunna , GG44 , komkam , maxbomb , bOyziOO , DRAGONFAT ,

vzio , AnfieldRoad , Champ14Za , one111 , utd , KingMovie ,

yorukung , IINOYII , Legendrider , kiatplk , supanyap , jukjunjao ,

khampeeaew , sakworbit and ShungOu]

Download 3.02 GB : putlocker.com B1DC5A7EDF62B9F2

Download 3.02 GB : http://cramit.in/yh31e9sw52ex
[DVD] ฮักนะสารคาม - Huk Na Sarakram Pos2
Admin
Admin
Admin

จำนวนข้อความ : 29
Join date : 07/07/2009
Age : 77
ที่อยู่ : ไม่บอกกลัวรู้

http://getaro.ace.st

ขึ้นไปข้างบน Go down

ขึ้นไปข้างบน


 
Permissions in this forum:
คุณไม่สามารถพิมพ์ตอบ